masonswhoread.com

:::: Bollywood Zone => Bollywood Movies (Original Rips) => High Resolution Movies => Topic started by: BUNGILI on October 20, 2018, 04:55:09 PM

Title: Soorma (2018) Hindi Movie - HDRip [Mp4 - AAC3(5.1Ch)] - 849 MB
Post by: BUNGILI on October 20, 2018, 04:55:09 PM
      Soorma (2018) Hindi Movie - HDRip
[Mp4 - AAC3(5.1Ch)] - 849 MB     


(http://media.giphy.com/media/1xVhlUk4qWMPdqJecC/giphy.gif)
(http://media.giphy.com/media/2sYduYpPCrA5kmlbbX/giphy.gif)

Code: [Select]
General
Format                                   : Matroska
Format version                           : Version 4
File size                                : 849 MiB
Duration                                 : 2 h 32 min

Video
ID                                       : 1
Format                                   : AVC
Format/Info                              : Advanced Video Codec
Format profile                           : [email protected]
Format settings                          : CABAC / 4 Ref Frames
Format settings, CABAC                   : Yes
Format settings, RefFrames               : 4 frames
Codec ID                                 : V_MPEG4/ISO/AVC
Duration                                 : 2 h 32 min
Bit rate                                 : 650 kb/s
Width                                    : 640 pixels
Height                                   : 272 pixels
Display aspect ratio                     : 2.35:1
Frame rate mode                          : Constant
Frame rate                               : 25.000 FPS
Color space                              : YUV
Chroma subsampling                       : 4:2:0
Bit depth                                : 8 bits
Scan type                                : Progressive
Bits/(Pixel*Frame)                       : 0.149
Stream size                              : 708 MiB (83%)

Audio
ID                                       : 2
Format                                   : AAC LC SBR
Commercial name                          : HE-AAC
Format settings                          : Explicit
Codec ID                                 : A_AAC-2
Duration                                 : 2 h 32 min
Bit rate                                 : 128 kb/s
Channel(s)                               : 6 channels
Channel layout                           : C L R Ls Rs LFE
Sampling rate                            : 48.0 kHz
Stream size                              : 139 MiB (16%)



  Thumbnail   
(http://www.keepimg.com/images/AiEG.jpg)

(http://www.keepimg.com/images/download2f5cb65aed443ead.jpg)

[b][color=green][size=5]openload Download Link[/size][/color][/b]
OR
[b][color=green][size=5]indishare Download Link[/size][/color][/b]
OR
[b][color=green][size=5]bdupload Download Link[/size][/color][/b]
Sitemap