+ masonswhoread.com »  :::: Bollywood Zone » Regional Movies » Bengali Movies
|- Inspector Notty K (2018) Bengali Movie - HDTVRip [Mp4 - AAC3(5.1Ch)] - 850 MB


Redmi 6A

Inspector Notty K (2018) Bengali Movie - HDTVRip [Mp4 - AAC3(5.1Ch)] - 850 MB

0 Members and 1 Guest are viewing this topic.

October 08, 2018, 02:25:58 PM
  • Semi Newbie
  • **
  • Topic Author
  • Thank You: 0
  • Reputation: -1
  • Activity:
    6.2%
  • Country: bd
  • Posts: 31
  • Topics: 31
  • Join Date: Oct 2018
  • ShareSpark Member
      Inspector Notty K (2018) Bengali Movie - HDTVRip
[Mp4 - AAC3(5.1Ch)] - 850 MB   
 




Code: [Select]
General
Format                                   : MPEG-4
Format profile                           : Base Media
Codec ID                                 : isom (isom)
File size                                : 851 MiB
Duration                                 : 2 h 39 min

Video
ID                                       : 1
Format                                   : AVC
Format/Info                              : Advanced Video Codec
Format profile                           : [email protected]
Format settings                          : CABAC / 4 Ref Frames
Format settings, CABAC                   : Yes
Format settings, RefFrames               : 4 frames
Codec ID                                 : avc1
Codec ID/Info                            : Advanced Video Coding
Duration                                 : 2 h 39 min
Bit rate                                 : 615 kb/s
Maximum bit rate                         : 2 861 kb/s
Width                                    : 640 pixels
Height                                   : 272 pixels
Display aspect ratio                     : 2.35:1
Frame rate mode                          : Constant
Frame rate                               : 25.000 FPS
Color space                              : YUV
Chroma subsampling                       : 4:2:0
Bit depth                                : 8 bits
Scan type                                : Progressive
Bits/(Pixel*Frame)                       : 0.141
Stream size                              : 701 MiB (82%)

Audio
ID                                       : 2
Format                                   : AAC LC SBR
Commercial name                          : HE-AAC
Format settings                          : Explicit
Codec ID                                 : mp4a-40-2
Duration                                 : 2 h 39 min
Bit rate mode                            : Variable
Bit rate                                 : 128 kb/s
Maximum bit rate                         : 155 kb/s
Channel(s)                               : 2 channels
Channel layout                           : L R
Sampling rate                            : 48.0 kHz
Stream size                              : 146 MiB (17%)



  Thumbnail   





OR

OR

Share this topic on FacebookShare this topic on GoogleShare this topic on MySpaceShare this topic on TwitterShare this topic on Yahoo

« Last Edit: October 08, 2018, 02:28:33 PM by BUNGILI »



Tags:
 

Related Topics

  Subject / Started by Replies Last post
0 Replies
157 Views
Last post October 07, 2018, 10:22:56 PM
by BUNGILI
0 Replies
147 Views
Last post October 08, 2018, 03:04:21 PM
by BUNGILI
0 Replies
151 Views
Last post October 11, 2018, 07:08:36 PM
by BUNGILI
0 Replies
28 Views
Last post October 20, 2018, 01:38:49 PM
by BUNGILI
0 Replies
41 Views
Last post October 20, 2018, 02:09:02 PM
by BUNGILI




Back to top
Sitemap