+ masonswhoread.com »  :::: Bollywood Zone » Regional Movies » Regional Movies in Hindi
|-  L7 (2018 - Hindi Dubbed) - 1CD - HDRip[Mp4 - AAC3(5.1Ch)]


100% Bill Offer

L7 (2018 - Hindi Dubbed) - 1CD - HDRip[Mp4 - AAC3(5.1Ch)]

0 Members and 1 Guest are viewing this topic.

October 11, 2018, 10:08:06 AM
  • Semi Newbie
  • **
  • Topic Author
  • Thank You: 0
  • Reputation: -1
  • Activity:
    6.2%
  • Country: bd
  • Posts: 31
  • Topics: 31
  • Join Date: Oct 2018
  • ShareSpark Member
      L7 (2018 - Hindi Dubbed) - 1CD -
 HDRip[Mp4 - AAC3(5.1Ch)]     
 




Code: [Select]
General
Format                                   : MPEG-4
Format profile                           : Base Media
Codec ID                                 : isom (isom)
File size                                : 700 MiB
Duration                                 : 2 h 9 min

Video
ID                                       : 1
Format                                   : AVC
Format/Info                              : Advanced Video Codec
Format profile                           : [email protected]
Format settings                          : CABAC / 4 Ref Frames
Format settings, CABAC                   : Yes
Format settings, RefFrames               : 4 frames
Codec ID                                 : avc1
Codec ID/Info                            : Advanced Video Coding
Duration                                 : 2 h 9 min
Bit rate                                 : 626 kb/s
Maximum bit rate                         : 3 280 kb/s
Width                                    : 720 pixels
Height                                   : 304 pixels
Display aspect ratio                     : 2.35:1
Frame rate mode                          : Constant
Frame rate                               : 25.000 FPS
Color space                              : YUV
Chroma subsampling                       : 4:2:0
Bit depth                                : 8 bits
Scan type                                : Progressive
Bits/(Pixel*Frame)                       : 0.114
Stream size                              : 579 MiB (83%)

Audio
ID                                       : 2
Format                                   : AAC LC SBR
Commercial name                          : HE-AAC
Format settings                          : Explicit
Codec ID                                 : mp4a-40-2
Duration                                 : 2 h 9 min
Bit rate mode                            : Variable
Bit rate                                 : 128 kb/s
Maximum bit rate                         : 138 kb/s
Channel(s)                               : 6 channels
Channel layout                           : C L R Ls Rs LFE
Sampling rate                            : 48.0 kHz
Stream size                              : 118 MiB (17%)


  Thumbnail   





OR

OR

Share this topic on FacebookShare this topic on GoogleShare this topic on MySpaceShare this topic on TwitterShare this topic on Yahoo




Tags:
 

Related Topics

  Subject / Started by Replies Last post
1 Replies
1074 Views
Last post January 18, 2018, 12:08:11 PM
by eerwerw
0 Replies
200 Views
Last post October 10, 2018, 09:33:41 PM
by BUNGILI
0 Replies
224 Views
Last post October 13, 2018, 11:31:26 AM
by BUNGILI
0 Replies
49 Views
Last post October 20, 2018, 03:22:44 PM
by BUNGILI
0 Replies
56 Views
Last post October 20, 2018, 03:55:04 PM
by BUNGILI




Back to top
Sitemap