+ masonswhoread.com »  :::: Dubbed Zone (Dubbed English in Hindi) » English Movies Dubbed in Hindi
|- The Darkest Minds (2018) 720p BluRay x264 Dual Audio [Hindi DD5.1 - English DD5.1] - Msubs ~ Ranvija


100% Bill Offer

The Darkest Minds (2018) 720p BluRay x264 Dual Audio [Hindi DD5.1 - English DD5.1] - Msubs ~ Ranvija

0 Members and 1 Guest are viewing this topic.

October 19, 2018, 10:44:48 AM
  • Global Moderator
  • Legend Member
  • *****
  • Topic Author
  • Thank You: 10068
  • Reputation: 2077
  • Activity:
    100%
  • Country: in
  • Posts: 5233
  • Topics: 4319
  • Join Date: Jan 2014
  • ıllıllı ѕмoĸιng ιѕ good ғor нealтн ıllıllı :)






The Darkest Minds (2018) 720p BluRay x264 Dual Audio [Hindi DD5.1 - English DD5.1] - Msubs ~ Ranvijay

Thanks To Invincible For Hindi Audio

Buy RDP Online




Quote

Format                                   : Matroska
Format version                           : Version 4 / Version 2
File size                                : 2.83 GiB
Duration                                 : 1 h 43 min
Overall bit rate                         : 3 897 kb/s
Movie name                               : The Darkest Minds (2018) 720p BluRay x264 Dual Audio [Hindi DD5.1 - English DD5.1] - Msubs ~ Ranvijay

Video
ID                                       : 1
Format                                   : AVC
Format/Info                              : Advanced Video Codec
Duration                                 : 1 h 43 min
Bit rate                                 : 3 000 kb/s
Width                                    : 1 280 pixels
Height                                   : 536 pixels
Display aspect ratio                     : 2.40:1
Frame rate mode                          : Constant
Frame rate                               : 23.976 (24000/1001) FPS
Color space                              : YUV
Chroma subsampling                       : 4:2:0
Bit depth                                : 8 bits
Scan type                                : Progressive
Bits/(Pixel*Frame)                       : 0.182
Stream size                              : 2.16 GiB (76%)
Title                                    : ~Ranvijay~

Audio #1
ID                                       : 2
Format                                   : AC-3
Format/Info                              : Audio Coding 3
Codec ID                                 : A_AC3
Duration                                 : 1 h 43 min
Bit rate mode                            : Constant
Bit rate                                 : 448 kb/s
Channel(s)                               : 6 channels
Channel positions                        : Front: L C R, Side: L R, LFE
Sampling rate                            : 48.0 kHz
Frame rate                               : 31.250 FPS (1536 SPF)
Bit depth                                : 16 bits
Compression mode                         : Lossy
Stream size                              : 333 MiB (11%)
Title                                    : ~Ranvijay~
Language                                 : Hindi
Service kind                             : Complete Main
Default                                  : Yes
Forced                                   : Yes

Audio #2
ID                                       : 3
Format                                   : AC-3
Format/Info                              : Audio Coding 3
Codec ID                                 : A_AC3
Duration                                 : 1 h 43 min
Bit rate mode                            : Constant
Bit rate                                 : 448 kb/s
Channel(s)                               : 6 channels
Channel positions                        : Front: L C R, Side: L R, LFE
Sampling rate                            : 48.0 kHz
Frame rate                               : 31.250 FPS (1536 SPF)
Bit depth                                : 16 bits
Compression mode                         : Lossy
Stream size                              : 333 MiB (11%)
Title                                    : ~Ranvijay~
Language                                 : English
Service kind                             : Complete Main
Default                                  : No
Forced                                   : No

Text
ID                                       : 4
Format                                   : PGS
Muxing mode                              : zlib
Codec ID                                 : S_HDMV/PGS
Codec ID/Info                            : Picture based subtitle format used on BDs/HD-DVDs
Duration                                 : 1 h 42 min
Bit rate                                 : 45.5 kb/s
Count of elements                        : 2574
Stream size                              : 33.4 MiB (1%)
Title                                    : ~Ranvijay~
Language                                 : Hindi
Default                                  : Yes
Forced                                   : Yes

Menu
00:00:00.000                             : en:00:00:00.000
00:03:53.358                             : en:00:03:53.358
00:09:40.038                             : en:00:09:40.038
00:14:33.748                             : en:00:14:33.748
00:19:26.957                             : en:00:19:26.957
00:23:35.539                             : en:00:23:35.539
00:26:24.166                             : en:00:26:24.166
00:30:50.932                             : en:00:30:50.932
00:35:35.342                             : en:00:35:35.342
00:41:21.562                             : en:00:41:21.562
00:47:22.923                             : en:00:47:22.923
00:51:48.314                             : en:00:51:48.314
00:55:55.227                             : en:00:55:55.227
00:59:32.819                             : en:00:59:32.819
01:03:33.685                             : en:01:03:33.685
01:08:40.616                             : en:01:08:40.616
01:12:14.247                             : en:01:12:14.247
01:14:11.447                             : en:01:14:11.447
01:18:01.802                             : en:01:18:01.802
01:20:54.516                             : en:01:20:54.516
01:23:28.003                             : en:01:23:28.003
01:26:56.878                             : en:01:26:56.878
01:29:24.985                             : en:01:29:24.985
01:37:59.957                             : en:01:37:59.957











:download:

Quote


File Leeched & Uploaded From




Don't walk as you are king, walk as you don't care who the king is....!!
Never argue with an idiot. They drag you down to their level and then beat you with experience?

Share this topic on FacebookShare this topic on GoogleShare this topic on MySpaceShare this topic on TwitterShare this topic on Yahoo

« Last Edit: October 19, 2018, 10:45:26 AM by Rάήνίјάч1234 »



Don't walk as you are king, walk as you don't care who the king is....!!

Thanks given by:


Tags:
 

Related Topics





Back to top
Sitemap