+ masonswhoread.com »  :::: Bollywood Zone » Regional Movies » Regional Movies in Hindi
|- Guru (2018 - South Hindi Dubbed) - 1CD - HDTVRip[Mp4 - AAC3(5.1Ch)]


HDFC 10% Off

Guru (2018 - South Hindi Dubbed) - 1CD - HDTVRip[Mp4 - AAC3(5.1Ch)]

0 Members and 1 Guest are viewing this topic.

October 20, 2018, 03:22:44 PM
  • Semi Newbie
  • **
  • Topic Author
  • Thank You: 0
  • Reputation: -1
  • Activity:
    5.4%
  • Country: bd
  • Posts: 27
  • Topics: 27
  • Join Date: Oct 2018
  • ShareSpark Member
      Guru (2018 - South Hindi Dubbed) - 1CD -
 HDTVRip[Mp4 - AAC3(5.1Ch)]   
 






Code: [Select]
General
Format                                   : MPEG-4
Format profile                           : Base Media
Codec ID                                 : isom (isom)
File size                                : 702 MiB
Duration                                 : 1 h 48 min

Video
ID                                       : 1
Format                                   : AVC
Format/Info                              : Advanced Video Codec
Format profile                           : [email protected]
Format settings                          : CABAC / 4 Ref Frames
Format settings, CABAC                   : Yes
Format settings, RefFrames               : 4 frames
Codec ID                                 : avc1
Codec ID/Info                            : Advanced Video Coding
Duration                                 : 1 h 48 min
Bit rate                                 : 771 kb/s
Maximum bit rate                         : 2 825 kb/s
Width                                    : 720 pixels
Height                                   : 312 pixels
Display aspect ratio                     : 2.35:1
Frame rate mode                          : Constant
Frame rate                               : 25.000 FPS
Color space                              : YUV
Chroma subsampling                       : 4:2:0
Bit depth                                : 8 bits
Scan type                                : Progressive
Bits/(Pixel*Frame)                       : 0.137
Stream size                              : 600 MiB (85%)

Audio
ID                                       : 2
Format                                   : AAC LC SBR
Commercial name                          : HE-AAC
Format settings                          : Explicit
Codec ID                                 : mp4a-40-2
Duration                                 : 1 h 48 min
Bit rate mode                            : Variable
Bit rate                                 : 128 kb/s
Maximum bit rate                         : 137 kb/s
Channel(s)                               : 6 channels
Channel layout                           : C L R Ls Rs LFE
Stream size                              : 99.4 MiB (14%)


  Thumbnail   






OR

OR

Share this topic on FacebookShare this topic on GoogleShare this topic on MySpaceShare this topic on TwitterShare this topic on Yahoo




Tags:
 

Related Topics

  Subject / Started by Replies Last post
0 Replies
132 Views
Last post October 08, 2018, 02:25:58 PM
by BUNGILI
0 Replies
140 Views
Last post October 08, 2018, 03:04:21 PM
by BUNGILI
0 Replies
211 Views
Last post October 12, 2018, 05:44:32 PM
by BUNGILI
0 Replies
221 Views
Last post October 13, 2018, 11:31:26 AM
by BUNGILI
0 Replies
44 Views
Last post October 20, 2018, 03:55:04 PM
by BUNGILI




Back to top
Sitemap